Insidious_ The Last Key (2018) HDCAM NEW x264 AAC Free

Insidious_ The Last Key (2018) full Movie Download, Hollywood Insidious_ The Last Key free download in English hd for pc and mobile dvdrip mp4 and high quality mkv movie in 720p bluray.

Movie info :

Insidious_ The Last Key (2018) full Movie Download

Language: Hollywood
File Format: mkv
File Size: 978.3 MiB
Quality: HDCAM
Format : Matroska
Format version : Version 4 / Version 2
File size : 978 MiB
Duration : 1 h 36 min
Overall bit rate : 1 415 kb/s
Encoded date : UTC 2018-01-07 08:13:31
Video
ID : 2
Format : AVC
Format/Info : Advanced Video Codec
Format profile : [email protected]
Format settings, CABAC : Yes
Format settings, ReFrames : 4 frames
Codec ID : V_MPEG4/ISO/AVC
Duration : 1 h 36 min
Bit rate : 1 348 kb/s
Width : 704 pixels
Height : 312 pixels
Display aspect ratio : 2.25:1
Frame rate mode : Constant
Frame rate : 29.970 (30000/1001) FPS
Color space : YUV
Chroma subsampling : 4:2:0
Bit depth : 8 bits
Scan type : Progressive
Bits/(Pixel*Frame) : 0.205
Stream size : 932 MiB (95%)
Default : Yes
Forced : No
Audio
ID : 1
Format : AAC
Format/Info : Advanced Audio Codec
Format profile : LC
Codec ID : A_AAC
Duration : 1 h 36 min
Bit rate : 64.5 kb/s
lang : hindi
Channel(s) : 2 channels
Channel positions : Front: L R
Sampling rate : 48.0 kHz
Frame rate : 46.875 FPS (1024 spf)
Compression mode : Lossy
Stream size : 44.6 MiB (5%)
Title : Stereo
Default : Yes
Forced : No

   

   

Watch Insidious_ The Last Key (2018) Full Hd Trailer

Insidious_ The Last Key (2018) Screenshots Photos

vlcsnap-2018-01-07-14h07m32s444.pngvlcsnap-2018-01-07-14h07m17s645.pngvlcsnap-2018-01-07-14h07m10s599.pngvlcsnap-2018-01-07-14h06m53s887.pngvlcsnap-2018-01-07-14h06m45s356.pngvlcsnap-2018-01-07-14h06m39s971.png

Get full hd movies on catalhoyuk.org full hd quality free Insidious_ The Last Key (2018) download fast speed movie. We often post direct Insidious_ The Last Key (2018) movie size are available like 300 MB, 400 MB, 700 MB, 1Gb, 2Gb BrRip.

Insidious_ The Last Key (2018) Full HD Movie Download

Note: Data is just for private use Only. No video files are hosted on our servers, All contents are provided by non-affiliated third parties link according to fair use of content policy which are well available on internet. Read Our DMCA Notice.

About Kriss

HI! I am kriss i love to watch movies, dramas, films, serials. Now its my job to share all movie with you. Here you will download any movie easily. All Movie I am posting here are for personal use only.

Leave a Reply