Download Toilet – Ek Prem Katha (2017) VCD HD Rip x264 AAC3 Hd

Download Toilet – Ek Prem Katha (2017) VCD HD Rip x264 AAC3 Hd: Download Full Hd Free Worldwide Movies Free of Cost Online. Toilet – Ek Prem Katha (2017) Full Hd Torrent Free,Full movie Download Free HD Highest Qulaity and downloading.

   

Poster:

Image result for Toilet - Ek Prem Katha (2017)

iMDB

Imdb Picture Title: Toilet – Ek Prem Katha
Year: 2017
Language: Hindi
Country: India
All Genres: Comedy, Drama
Plot Outline: The movie is about PM Narendra Modi’s ‘Swacha Bharat Abhijan’. Its a comedy genre film based on the unhygienic condition in rural areas of India.
Tagline: What happens when two people in love cannot be together because of the lack of a toilet in the house?
Director: Shree Narayan Singh
Writing By: Garima,Siddharth,
Produced By: Prerna Arora,Shital Bhatia,Arjun N. Kapoor,Karan Shah,
Plot:

The movie is about PM Narendra Modi’s ‘Swacha Bharat Abhijan’. Its a comedy genre film based on the unhygienic condition in rural areas of India.

Cast:
Akshay Kumar as Keshav 
Anupam Kher as Kakka 
Bhumi Pednekar as Jaya 
Jaspal Sharma as Dabloo,keshav’s friend 
Sana Khaan as Keshav’s Girl Friend 
Vijay Kumar Dogra as Shiv Shankar , Keshav’s friend 
Divyendu Sharma as Keshav’s Friend 
Mukesh Bhatt as Rastogi 
Satyajeet Dubey as
Vikas Pal as Hari, keshav’s friend 

 
Details

Name: Toilet – Ek Prem Katha (2017) – 2CD – HDTV Rip[x264 – AAC3(5.1Ch)]
Description:

Toilet – Ek Prem Katha (2017) –
2CD – HDTV Rip[x264 – AAC3(5.1Ch)]    
  



General
Format                                   : Matroska
Format version                           : Version 2
File size                                : 1.40 GiB
Duration                                 : 2 h 52 min

Video
ID                                       : 1
Format                                   : AVC
Format/Info                              : Advanced Video Codec
Format profile                           : [email protected]
Format settings                          : CABAC / 4 Ref Frames
Format settings, CABAC                   : Yes
Format settings, RefFrames               : 4 frames
Codec ID                                 : V_MPEG4/ISO/AVC
Duration                                 : 2 h 52 min
Bit rate                                 : 1 033 kb/s
Width                                    : 720 pixels
Height                                   : 304 pixels
Display aspect ratio                     : 2.35:1
Frame rate mode                          : Constant
Frame rate                               : 25.000 FPS
Color space                              : YUV
Chroma subsampling                       : 4:2:0
Bit depth                                : 8 bits
Scan type                                : Progressive
Bits/(Pixel*Frame)                       : 0.189
Stream size                              : 1.25 GiB (89%)

Audio
ID                                       : 2
Format                                   : AAC
Format/Info                              : Advanced Audio Codec
Format profile                           : HE-AAC / LC
Format settings                          : Explicit
Codec ID                                 : A_AAC-2
Duration                                 : 2 h 52 min
Bit rate                                 : 128 kb/s
Channel(s)                               : 6 channels
Channel positions                        : Front: L C R, Side: L R, LFE
Sampling rate                            : 48.0 kHz
Stream size                              : 158 MiB (11%)

Thumbnail



Category: Movies > Bollywood
Lang: Hindi
Total Size: 1.40 GB
Info Hash: 55af90050f8bbd355a26ea8d5fbfa1dd116a1c3f
Added By: Pherarim
Date Added: 25-09-2017 06:47:55
Views: 943
Hits: 178

 
WikiPedia:

Toilet: Ek Prem Katha
Toilet Ek Prem Katha.jpg

Official theatrical release poster
Hindi टॉयलेट: एक प्रेम कथा
Directed by Shree Narayan Singh
Produced by
  • Aruna Bhatia
  • Shital Bhatia
  • Prernaa Arora
  • Arjun N. Kapoor
  • Hitesh Thakkar
Written by
  • Siddharth Singh
  • Garima Wahal
Starring
Music by
  • Songs:
  • Vickey Prasad
  • Manas-Shikhar
  • Sachet-Parampara
  • Score:
  • Surender Sodhi
Cinematography Anshuman Mahaley
Edited by Shree Narayan Singh
Production
company
Distributed by Viacom 18 Motion Pictures
Release date
  • 11 August 2017[1]
Running time
155 minutes[2]
Country India
Language Hindi
Budget ₹18 crore[3]
Box office ₹216.20 crore[4]

 
toilet ek prem katha full movie watch online
toilet movie download 2017
toilet ek prem katha full movie download
toilet ek prem katha story
toilet ek prem katha movie release date
toilet ek prem katha watch online
toilet ek prem katha songs
toilet ek prem katha movie online
toilet ek prem katha full movie watch online
toilet ek prem katha full movie online
toilet ek prem katha watch online
toilet ek prem katha trailer
toilet ek prem katha full movie download hd
toilet ek prem katha download full movie
toilet ek prem katha release date
toilet ek prem katha movie online

Note: At Hdmoviesfree.co we provide all movies of the world. We Upload Movies of all Categories Like  Action, Adventure, Animation, Biography, Bold, Collection, Comedy, Crime, Documentary, Drama, Family, Fantasy, History, Horror, Korean, Music, Musical, Mystery, Romance, Sci-Fi, Sport, Talk-Show, Thriller, War, Western, World cinema, Zombies,…..etc.

If there is any problem aobut downloading movie, wrong or missing file please let us know. Write your problem in comment box below we will fix it asap.

torrent4u movies,torrentmovies in bollywood,torrent4u,torrentmovies in

About Kriss

HI! I am kriss i love to watch movies, dramas, films, serials. Now its my job to share all movie with you. Here you will download any movie easily. All Movie I am posting here are for personal use only.

Leave a Reply